Enable / Włącz Javascript
 Widok 
 Kategorie 
 Nitro Torrent w sieci 
 Top 10 użytkowników 
 Czarnoksiężnik z Oz - The Wizard of Oz (1939) [DVDRip x264 AC3] [Napisy PL]

Czarnoksiężnik z Oz - The Wizard of Oz (1939) [DVDRip x264 AC3] [Napisy PL]
Kategoria: » » »
Dodane: 03/10/2017
Rozmiar: 1.22 GB
Uploader: tomysparow559 (10)
seed(ów): 0
leecher(ów): 0
Pobrane: 3
Komentarzy: 0
Pobierz Torrent Pobierz Torrent
Pobierz [Magnet] Pobierz [Magnet]

Obserwuj
Raportuj
The file containing - sample!!!
Plik zawiera - sample !!!

czas trwania: 1 godz. 38 min.
gatunek: Familijny, Fantasy, Musical, Przygodowy
premiera: 12 sierpnia 1939 (świat) 1939-08-12
produkcja: USA
reżyseria: King Vidor, Mervyn LeRoy
scenariusz: Herman J. Mankiewicz, Florence Ryerson
muzyka: George Bassman, George Stoll
zdjęcia: Harold Rosson

Opis Filmu:

Dorothy Gale is swept away to a magical land in a tornado
and embarks on a quest to see the Wizard who can help her return home.

Pewnego dnia, Toto - pies Dorotki (Judy Garland) gryzie
w nogę podłą panią Gulch (Margaret Hamilton). Kobieta
z zemsty chce uśpić Toto. Dorotka postanawia ratować
przyjaciela i razem uciekają do domu. Jednak po drodze
spotyka profesora Marvela (Frank Morgan), który namawia
ją do powrotu. Gdy Dorotka jest już w domu, potężne tornado
przenosi ją do czarodziejskiej krainy Oz. Okazuje się, że
dom spadł na Czarownicę ze Wschodu. Jej siostra poprzysięga
zemstę.

Obsada:

Judy Garland- Dorotka Gale
Frank Morgan- Profesor Marvel / Klucznik miasta
Jack Haley Hickory / Cynowy Drwal

Dane Techniczne:

The wizard of Oz -alE13.mkv
Format : Matroska
Format version : Version 2
File size : 1.21 GiB
Duration : 1h 37mn
Overall bit rate : 1 767 Kbps
Encoded date : UTC 2012-08-01 19:24:53
Writing application : mkvmerge v5.5.0 ('Healer') built on Apr 6 2012 21:43:24
Writing library : Lavf52.94.0

Video
ID : 1
Format : AVC
Format/Info : Advanced Video Codec
Format profile : Main@L3.0
Format settings, CABAC : Yes
Format settings, ReFrames : 2 frames
Muxing mode : Header stripping
Codec ID : V_MPEG4/ISO/AVC
Duration : 1h 37mn
Bit rate : 1 660 Kbps
Width : 624 pixels
Height : 464 pixels
Display aspect ratio : 4:3
Frame rate mode : Variable / Variable
Frame rate : 25.000 fps
Color space : YUV
Chroma subsampling : 4:2:0
Bit depth : 8 bits
Scan type : Progressive
Bits/(Pixel*Frame) : 0.229
Stream size : 1.11 GiB (92%)
Writing library : x264 core 112 r1834 a51816a

Audio
ID : 2
Format : AC-3
Format/Info : Audio Coding 3
Mode extension : CM (complete main)
Format settings, Endianness : Big
Muxing mode : Header stripping
Codec ID : A_AC3
Duration : 1h 37mn
Bit rate mode : Constant
Bit rate : 112 Kbps
Channel(s) : 1 channel
Channel positions : Front: C
Sampling rate : 48.0 KHz
Bit depth : 16 bits
Compression mode : Lossy
Stream size : 78.3 MiB (6%)

Dostępne napisy
Brak napisów
Szczegóły torrenta
Tracker http://fr33dom.h33t.com:3310/announce
Multitracker [ Pokaż ]
Kategoria: » » » [Zgłoś błąd]
Dodane 03-10-2017
Podziękowali:
0 użytkowników 
Podziękuj!
Pokaż / Ukryj pliki:
Nazwa pliku Rozmiar
The wizard of Oz -alE13.mkv 1.21 GB
SAMPLE.mkv 13.30 MB
vlcsnap-2012-08-01-21h54m45s96.png 711.18 KB
vlcsnap-2012-08-01-21h54m18s106.png 664.09 KB
vlcsnap-2012-08-01-21h54m55s201.png 658.65 KB
vlcsnap-2012-08-01-21h54m35s13.png 575.13 KB
vlcsnap-2012-08-01-21h56m20s41.png 404.24 KB
1.jpg 194.69 KB
Nostalgie11.jpg 185.84 KB
3.jpg 156.58 KB
2.jpg 154.33 KB
4.jpg 150.27 KB
5.jpg 125.84 KB
13 plików
Brak komentarzy...
Edward G. Robinson | Yucatan BluRay 1080p | 07.06.1310:57 Uhr Schnuffel-Folge 7 - Abenteuer Auf Der Trauminsel Sonstiges256 kbit/s 9 / 112.954 Hits VID P2P DDL 0 Kommentare