Enable / Włącz Javascript
 Widok 
 Kategorie 
 Nitro Torrent w sieci 
 Top 10 użytkowników 
 Like Dandelion Dust (2009) [1080p.Bluray.x264.DTS-FGT] [Napisy PL]

Like Dandelion Dust (2009) [1080p.Bluray.x264.DTS-FGT] [Napisy PL]
Kategoria: » » »
Dodane: 03/10/2017
Rozmiar: 8.86 GB
Uploader: it553.com❱ Wędrowiec
seed(ów): 0
leecher(ów): 0
Pobrane: 2
Komentarzy: 0
Pobierz Torrent Pobierz Torrent
Pobierz [Magnet] Pobierz [Magnet]

Obserwuj
Raportuj
Produkcja: USA
Gatunek: Dramat, Familijny
Reżyseria: Jon Gunn
Scenariusz: Stephen J. Rivele, Michael Lachance

Opis:
Po siedmiu latach odsiadki Rip Porter (Barry Pepper) wychodzi z więzienia. Po powrocie do domu dowiaduje się od swojej żony Wendy (Mira Sorvino), że po tym, jak trafił do więzienia, urodził się ich syn. Wendy zdecydowała się oddać go do adopcji. Joey (Maxwell Perry Cotton) trafił na Florydę do rodziny Campbellów, którzy pokochali go i zapewnili mu szczęśliwe dzieciństwo. Tymczasem Porterowie znajdują lukę prawną, która pozwala im na odzyskanie syna. Sąd nakazuje Campbellom oddać dziecko biologicznym rodzicom.

Obsada:
Cole Hauser - Jack Campbell
Kate Levering - Molly Campbell
Barry Pepper - Rip Porter
Mira Sorvino - Wendy Porter
Rus Blackwell - Curtis Golding

Dane techniczne:
Video
ID : 1
Format : AVC
Format/Info : Advanced Video Codec
Format profile : High@L4.1
Format settings, CABAC : Yes
Format settings, ReFrames : 4 frames
Codec ID : V_MPEG4/ISO/AVC
Duration : 1h 40mn
Bit rate : 10.9 Mbps
Nominal bit rate : 11.5 Mbps
Width : 1 916 pixels
Height : 1 080 pixels
Display aspect ratio : 16:9
Frame rate mode : Constant
Frame rate : 25.000 fps
Color space : YUV
Chroma subsampling : 4:2:0
Bit depth : 8 bits
Scan type : Progressive
Bits/(Pixel*Frame) : 0.211
Stream size : 7.62 GiB (86%)
Writing library : x264 core 148 r2638 7599210
Language : English
Default : Yes
Forced : No

Audio
ID : 2
Format : DTS
Format/Info : Digital Theater Systems
Mode : 16
Format settings, Endianness : Big
Codec ID : A_DTS
Duration : 1h 40mn
Bit rate mode : Constant
Bit rate : 1 509 Kbps
Channel(s) : 6 channels
Channel positions : Front: L C R, Side: L R, LFE
Sampling rate : 48.0 KHz
Frame rate : 93.750 fps (512 spf)
Bit depth : 24 bits
Compression mode : Lossy
Stream size : 1.05 GiB (12%)
Language : English
Default : Yes
Forced : No

Text
ID : 3
Format : UTF-8
Codec ID : S_TEXT/UTF8
Codec ID/Info : UTF-8 Plain Text
Language : English
Default : Yes
Forced : No

Napisy:
http://www117.zippyshare.com/v/FMWz32YT/file.html / Napiprojekt

Trailer:
http://www.youtube.com/watch?v=XT6olxrZUJs


3599005 torrent pobrano z http://*censored*
Dostępne napisy
Brak napisów
Szczegóły torrenta
Tracker http://tracker.trackerfix.com:80/announce
Multitracker [ Pokaż ]
Kategoria: » » » [Zgłoś błąd]
Dodane 03-10-2017
Podziękowali:
0 użytkowników 
Podziękuj!
Pokaż / Ukryj pliki:
Nazwa pliku Rozmiar
Like.Dandelion.Dust.2009.1080p.BluRay.x264.DTS-FGT.mkv 8.86 GB
Like.Dandelion.Dust.2009.1080p.BluRay.x264.DTS-FGT.nfo 4.31 KB
RARBG.com.txt 0.03 KB
3 plików
Brak komentarzy...
Dharma Bhai [ Bolly4u wiki ] HDRIp Hindi Dubbed 720p 900MB mkv | RJ Cyler | The Last Witness